#TITLE:Love You;
#SUBTITLE:Initiate;
#ARTIST:Mighty mouth;
#TITLETRANSLIT:;
#SUBTITLETRANSLIT:;
#ARTISTTRANSLIT:;
#CREDIT:;
#BANNER:love-you-bn.jpg;
#BACKGROUND:;
#LYRICSPATH:;
#CDTITLE:cdtitle.png;
#MUSIC:love you.mp3;
#OFFSET:0.060;
#SAMPLESTART:100.000;
#SAMPLELENGTH:12.000;
#SELECTABLE:YES;
#DISPLAYBPM:125.000;
#BPMS:0.000=125.000,0.500=250.000,1.000=125.000,45.000=250.000,45.500=125.000,49.000=250.000,49.500=125.000,62.000=250.000,62.500=125.000,75.500=499.997,77.000=125.000,85.000=250.000,85.750=62.500,86.000=125.000,92.500=250.000,93.000=125.000,110.000=250.000,112.000=125.000,114.000=250.000,115.000=125.000,135.500=250.000,136.500=125.000,172.000=250.000,172.500=125.000,179.500=250.000,180.500=125.000,182.500=250.001,183.000=250.000,183.500=125.000,186.500=250.000,187.000=125.000,229.000=250.000,231.000=125.000,232.000=250.000,233.000=125.000,278.000=250.000,279.000=125.000,284.000=250.000,286.000=250.001,288.000=124.980,291.000=250.000,291.500=125.000,300.000=250.000,301.000=125.000,303.000=250.000,306.000=125.020;
#STOPS:0.000=7.920
,0.500=0.080
,0.583=0.040
,0.625=0.020
,0.667=0.040
,0.750=0.080
,0.833=0.040
,0.875=0.020
,0.917=0.040
,1.000=0.080
,2.000=0.240
,2.500=0.240
,10.000=0.240
,11.000=0.240
,13.000=0.120
,13.500=0.240
,14.000=0.480
,14.500=0.120
,15.000=0.240
,15.500=0.120
,16.750=0.120
,18.000=0.240
,18.500=0.120
,18.750=0.480
,19.250=0.120
,20.500=0.120
,20.750=0.120
,25.500=0.240
,26.000=0.240
,34.500=0.240
,37.500=0.120
,41.250=0.120
,45.000=0.140
,49.000=0.100
,55.500=0.120
,55.750=0.120
,56.000=0.240
,58.500=0.240
,59.000=0.240
,62.000=0.120
,70.500=0.240
,73.000=0.240
,73.500=0.240
,75.500=0.300
,81.000=0.260
,86.000=0.280
,92.500=0.240
,93.250=0.120
,101.000=0.240
,102.500=0.260
,110.000=0.240
,111.000=0.240
,114.000=0.240
,125.500=0.240
,127.500=0.120
,127.750=0.240
,128.250=0.480
,128.750=0.120
,131.000=0.240
,133.000=0.120
,133.250=0.240
,133.750=0.480
,134.250=0.120
,135.500=0.120
,136.000=0.120
,136.500=0.240
,140.500=0.240
,141.000=0.240
,172.250=0.120
,173.500=0.240
,174.000=0.120
,174.250=0.120
,176.500=0.240
,177.000=0.120
,177.250=0.120
,180.000=0.240
,182.500=0.120
,183.250=0.120
,186.750=0.120
,188.000=0.120
,188.250=0.120
,191.000=0.120
,191.250=0.120
,191.500=0.120
,191.750=0.120
,192.500=0.240
,201.500=0.240
,208.000=0.240
,208.500=0.240
,216.000=0.240
,218.500=0.040
,218.583=0.040
,218.667=0.040
,218.750=0.120
,231.000=0.240
,231.500=0.240
,232.000=0.120
,232.500=0.120
,234.500=0.240
,237.500=0.240
,238.000=0.240
,239.500=0.240
,243.000=0.720
,257.500=0.720
,258.000=0.120
,258.500=0.120
,265.500=0.120
,266.000=0.120
,269.000=0.120
,269.500=0.120
,270.000=0.040
,270.083=0.040
,270.167=0.040
,270.250=0.040
,270.333=0.040
,270.417=0.040
,270.500=0.040
,270.583=0.040
,270.667=0.040
,270.750=0.160
,271.500=0.120
,272.000=0.120
,275.000=0.120
,275.500=0.120
,276.000=0.040
,276.083=0.040
,276.167=0.040
,276.250=0.040
,276.333=0.040
,276.417=0.040
,276.500=0.040
,276.583=0.040
,276.667=0.040
,276.750=0.100
,278.000=0.120
,278.500=0.120
,283.500=0.240
,284.000=0.240
,285.250=0.120
,285.750=0.120
,286.250=0.120
,286.750=0.120
,287.250=0.120
,287.750=0.120
,290.500=0.240
,291.000=0.100
,298.500=0.120
,298.750=0.120
,300.000=0.120
,300.500=0.120
,301.000=0.120
,301.250=0.120
,301.500=0.120
,301.750=0.120
,303.500=0.240
,304.500=0.240
,305.500=0.240
,315.000=0.960
;
#BGCHANGES:;
// cache tags:
#FIRSTBEAT:0.500;
#LASTBEAT:316.500;
#SONGFILENAME:Songs/Initiate/loveyou/love you.sm;
#HASMUSIC:1;
#HASBANNER:1;
#MUSICLENGTH:181.611;
// end cache tags

//---------------dance-single - ----------------
#NOTES:
     dance-single:
     :
     Hard:
     7:
     0.735,0.937,1.000,0.253,0.416,647.000,236.000,46.000,0.000,19.000:
0000
0220
0330
0000
1111
1001
0010
0101
,
0000
1000
0010
0001
,
0010
0000
1100
0000
1001
0001
0010
1000
,
0100
0000
0010
0000
0002
0000
0023
0000
0230
0000
1311
0000
0002
0000
0203
0320
,
0000
0000
0000
0130
1000
0000
0010
0000
0200
0320
0000
0230
0000
0311
0000
0000
,
0000
0000
1001
1001
1001
0000
0000
0000
1010
0000
0101
0000
0100
0000
1010
0000
,
1000
0011
0010
0002
2003
3011
0000
0110
,
0010
0000
0110
0001
1000
0100
0011
0000
0001
0000
0001
1000
0001
0110
0100
1000
,
1100
0010
0110
1000
0101
0010
1000
0000
0001
0000
0220
0000
0331
0000
0010
0000
,
0101
1010
0101
1010
0101
1010
0202
1303
0010
1000
0100
0001
0100
1000
0001
0010
,
0100
0000
0010
0000
0001
0000
0001
0000
0010
0000
0100
0000
0001
0000
0010
0000
1000
0100
0010
0000
0100
0010
0001
0000
1000
0000
0100
0000
0010
0000
1000
0000
,
0010
0001
0100
1000
0020
0000
0130
1000
0010
0001
0100
0001
1000
0100
0001
1000
,
0010
0100
0001
1000
0200
0000
0310
0000
0001
0010
0100
0000
0001
0100
0010
1000
,
0010
0100
0010
0000
1000
0000
0001
0000
0100
0000
1000
0000
0100
0000
1001
1001
,
1001
0100
0001
1000
0010
0100
0001
0100
,
0000
0001
0000
0000
0100
0000
0000
0000
0110
0000
0110
0000
1000
0000
0011
0000
,
0110
1100
0110
0011
1001
0110
0000
0110
,
1001
0110
0011
0110
1100
1100
0110
0001
,
1000
0000
0100
0000
0010
0000
0001
0000
0001
0000
0000
0010
0000
0000
0200
0000
,
0000
0000
0000
0000
0311
0000
0000
0000
1000
0000
0110
0000
0011
0000
0110
0001
,
1100
0001
0110
1000
0101
0000
0101
0010
0001
1000
0100
0010
0100
1000
0001
0100
,
1000
0100
1000
0001
1110
0000
0000
0000
1000
0000
0101
0000
0010
0000
0001
0000
,
0000
0010
0000
0100
0000
1000
0000
0100
,
0000
0000
0011
0000
0000
0001
0000
0000
0010
0000
0001
0000
0010
0000
0000
0000
,
0101
0101
1001
0110
,
1001
0000
0022
0133
0100
1000
1100
0000
,
0001
0100
1000
0101
,
0101
0010
0101
0010
1000
0010
0101
0010
0101
0000
0000
0000
0101
0000
0000
0000
,
1100
0010
0101
0010
0100
1000
0101
0010
0202
0000
0000
0000
1313
0000
0000
0000
,
0011
0000
0000
0110
0000
0000
1100
0000
0000
0000
0000
0000
0011
0000
0000
0000
,
1100
0000
0000
0110
0000
0000
0011
0000
0000
0000
0000
0000
0011
0000
0000
0000
,
0001
0000
0000
0100
0000
0000
1000
0000
1000
0000
0100
0000
0010
0000
0002
0023
,
0000
0230
0000
0311
0000
0000
0010
0000
0000
0001
0000
0000
0010
0000
1000
0000
,
0100
0000
0010
0000
0002
0023
0000
0230
0000
0311
0000
0000
0000
0000
1001
0000
,
1001
1001
0110
0001
0110
0100
1100
0100
,
0110
0000
0020
0000
0230
0000
1301
0010
0100
0010
0001
0000
0100
0000
1000
0000
,
0010
0100
1000
0000
0000
0001
0100
0010
0001
0010
0100
0000
0100
0000
0100
0010
,
0001
0100
1000
0000
0010
0000
0100
0000
1000
0000
0010
0000
0001
0000
0100
0010
,
1000
0100
0010
0000
0100
0000
0010
0000
1000
0000
0010
0000
0100
0000
0001
0010
,
0100
0010
0001
0000
0001
0000
0110
0000
0100
0000
1100
0000
0100
0000
0110
1000
,
0010
1000
0011
0000
0100
0000
1100
0000
0100
0000
0101
0000
0010
0000
0011
0001
,
0100
0001
1100
0000
0010
0000
0101
1000
0001
0100
0011
1000
0001
0010
0101
1000
,
0001
0010
1001
0100
0001
1000
0101
0010
0001
1000
0011
0100
1001
0010
0101
0010
,
1001
0000
1001
0000
0000
0000
1001
0000
0110
0110
0000
0000
0101
0000
0010
0000
,
0001
0000
1001
0000
0110
0110
0000
0000
0101
0000
0010
0000
0101
0000
1010
0000
,
0000
0010
1000
0011
0011
1001
1001
1001
,
0000
0000
0001
1000
0100
0010
1000
0001
1000
0000
0110
0000
0110
0000
0000
0000
,
1001
1001
1001
0000
0000
0000
0100
0000
1000
0000
0000
0000
1001
1001
1001
1001
,
0000
0000
1001
0000
0000
0000
0110
0001
0001
1000
0110
1000
0001
0001
0110
0001
,
1000
0010
0101
0010
0001
0100
1010
0000
0100
0000
1010
0000
0100
0000
1001
0000
,
0010
0101
0000
2200
3310
0001
0010
0000
,
0100
0010
0001
0010
,
1100
0001
0010
0100
1000
0000
0001
0000
,
0100
0100
0010
1001
,
0002
0000
0013
0000
0100
0000
1000
0000
0000
0000
0200
0310
0000
0000
0100
0000
,
0010
0001
0001
0000
1000
0100
0001
0010
,
0100
1000
0100
0000
0001
0010
0100
1000
,
0100
0001
0020
0000
0000
0000
1131
0010
,
0100
0000
0100
0000
0100
0000
0000
0000
0010
0000
0100
0000
0010
0000
1000
0100
,
0010
0100
0000
0000
0001
0010
0100
1000
,
0100
0000
0000
0001
0000
0000
0010
0001
0100
0000
1000
0100
0010
0000
0101
0000
,
0000
1010
1000
1100
0000
0101
0010
0101
,
0010
0000
1100
0000
1000
0000
1100
0000
0000
0000
1010
0000
0100
0000
0011
1000
,
0010
0001
0110
0000
0100
0000
1100
0000
0000
0000
0110
0000
0001
0000
1010
0000
,
0010
0000
0101
0010
0100
1000
0101
0000
0011
0000
0110
0000
1100
0000
0000
0000
,
0000
0001
0000
0100
0000
1000
0000
0100
,
0000
0011
0000
1000
0100
0010
0000
0001
,
0010
0000
0100
0000
1000
0000
0100
0000
0020
0000
0000
1031
0000
0000
0101
0000
,
1010
1100
0000
0001
0010
1100
0110
1001
,
0220
0000
0000
1331
0000
0000
0000
0000
1001
0000
1001
0000
1001
0000
0000
0000
,
0011
0100
1001
0100
0011
0010
1001
0220
,
2332
0000
3113
0110
1001
0110
0110
1001
,
1001
0000
0001
0010
0100
0001
1000
0100
0010
0000
0001
0000
0110
0000
0110
0000
,
0000
0000
1001
0100
1010
0001
1100
0001
1010
0100
1001
0100
1010
0001
1100
0001
,
1010
0100
1001
0010
0101
0010
1100
0010
0001
0010
1100
1100
1100
0000
0000
0000
,
0110
0000
0110
0000
1001
1001
0110
1001
1001
0000
0000
0000
1100
0000
0000
0000
,
0011
0000
1100
0000
0011
0000
0011
0100
,
1010
0100
0011
1000
0101
1001
1010
0110
,
1001
0101
0011
0000
0110
0000
0202
0000
,
0000
0303
0000
0000
0000
0000
0000
0000
;
